Raid (2018) Hindi 720p Untouched True HDTV 720p x264 AAC - 1.4GB ...

seeders: 34
leechers: 9
updated:
Added by ictv in Other


strongly advises you to use NordVPN while downloading torrents.
NordVPN is the safest VPN on the market, and the fastest VPN as well.
No IP Log is saved using NordVPN, avoid other VPN providers and choose the safest one.
Click here and buy NordVPN it's on rebates today!
We were able to verify your IP: 54.92.150.98 and country: United States.
If we can do that, others can too, protect your privacy with NordVPN.
is trying the best for you!


Description

Visit Our Site For More Exclusives www.movcr.com  

https://www.imdb.com/title/tt7363076/  

 

General
Unique ID : 18067870764505128900742883967893896744 (0xD97BECE2FF04AFF6DA5F6EAAC35FE28)
Complete name : [www.MovCr.com] Raid (2018) Hindi 720p Untouched True HDTV 720p x264 AAC - 1.4GB [MovCr]\www.MovCr.com - Raid (2018) Hindi 720p Untouched True HDTV 720p x264 AAC - 1.4GB [MovCr].mkv
Format : Matroska
Format version : Version 4 / Version 2
File size : 1.39 GiB
Duration : 1 h 52 min
Overall bit rate : 1 763 kb/s
Movie name : www.MovCr.com
Encoded date : UTC 2018-05-27 10:57:53
Writing application : mkvmerge v23.0.0 ('The Bride Said No') 64-bit
Writing library : libebml v1.3.6 + libmatroska v1.4.9

Video
ID : 1
Format : AVC
Format/Info : Advanced Video Codec
Format profile : [email protected] 
Format settings, CABAC : Yes
Format settings, ReFrames : 3 frames
Codec ID : V_MPEG4/ISO/AVC
Duration : 1 h 52 min
Bit rate : 1 632 kb/s
Width : 1 280 pixels
Height : 720 pixels
Display aspect ratio : 16:9
Frame rate mode : Constant
Frame rate : 25.000 FPS
Color space : YUV
Chroma subsampling : 4:2:0
Bit depth : 8 bits
Scan type : Progressive
Bits/(Pixel*Frame) : 0.071
Stream size : 1.29 GiB (93%)
Title : www.MovCr.com
Default : Yes
Forced : No

Audio
ID : 2
Format : AAC
Format/Info : Advanced Audio Codec
Format profile : LC
Codec ID : A_AAC
Duration : 1 h 52 min
Bit rate : 129 kb/s
Channel(s) : 2 channels
Channel positions : Front: L R
Sampling rate : 44.1 kHz
Frame rate : 43.066 FPS (1024 spf)
Compression mode  : Lossy
Delay relative to video : -80 ms
Stream size : 104 MiB (7%)
Title : www.MovCr.com
Language : Hindi
Default : Yes
Forced : No

  

 
 
 
 
 
 
 
 
 
 

Sharing Widget


Download torrent
Size: 1.4 GB
seeders:34
leechers:9
Raid (2018) Hindi 720p Untouched True HDTV 720p x264 AAC - 1.4GB ... - (1503238553 Bytes)



To share this torrent use the code below and insert it into comments, status messages, forum posts or your signature.

Torrent: Raid (2018) Hindi 720p Untouched True HDTV 720p x264 AAC - 1.4GB ...

Trackers

tracker name
udp://tracker.openbittorrent.com:80/announce
udp://tracker.publicbt.com:80/announce
udp://tracker.torrent.eu.org:451/announce
http://t.nyaatracker.com:80/announce
udp://tracker.doko.moe:6969/announce
http://asnet.pw:2710/announce
udp://thetracker.org:80/announce
http://tracker.tfile.co:80/announce
http://pt.lax.mx:80/announce
udp://santost12.xyz:6969/announce
https://tracker.bt-hash.com:443/announce
udp://bt.xxx-tracker.com:2710/announce
udp://tracker.vanitycore.co:6969/announce
udp://zephir.monocul.us:6969/announce
udp://tracker.zer0day.to:1337/announce
udp://tracker.leechers-paradise.org:6969/announce
udp://coppersurfer.tk:6969/announce
ĀµTorrent compatible trackers list

Locations

name
KickassTorrents
Torrent hash: 33B6A0279E8F84AF4F94820CD8E9EC360B35F6FB

strongly advises you to use NordVPN while downloading torrents.
NordVPN is the safest VPN on the market, and the fastest VPN as well.
No IP Log is saved using NordVPN, avoid other VPN providers and choose the safest one.
Click here and buy NordVPN it's on rebates today!
We were able to verify your IP: 54.92.150.98 and country: United States.
If we can do that, others can too, protect your privacy with NordVPN.
is trying the best for you!

All Comments

*comments box temporarily disabled*
Report a bug